CUE file [CUE sheet. How to create? Syntax]
audio file converter for music production and hi‑end audio
ISO DSF DFF WAV FLAC AIFF ALAC mp3 ...

CUE file [CUE sheet. How to create? Syntax]

Read how to create .cue sheet file with time scores.

Examples

REM GENRE Classical
REM DATE 2021
PERFORMER "Jazzman"
TITLE "First Album"
FILE "Jazzman - First Album.flac" FLAC
  TRACK 01 AUDIO
    TITLE "First track"
    PERFORMER "Jazzman"
    INDEX 01 00:00:00
  TRACK 02 AUDIO
    TITLE "Second Track"
    PERFORMER "Jazzman"
    INDEX 01 03:15:00
  TRACK 03 AUDIO
    TITLE "Third Track"
    PERFORMER "Jazzman"
    INDEX 01 06:42:00

INDEX 01 is track begin

Time code XX.YY.ZZ, where

XX - minutes;

YY - seconds;

ZZ - frames (0 ... 74). 1 frame = 1/75 second.

 

 

REM GENRE Classical
REM DATE 2021
PERFORMER "Jazzman"
TITLE "First Album"
FILE "Jazzman - First Album.flac" FLAC
  TRACK 01 AUDIO
    TITLE "First track"
    PERFORMER "Jazzman"
    INDEX 00 00:00:00
    INDEX 01 00:02:00
  TRACK 02 AUDIO
    TITLE "Second Track"
    PERFORMER "Jazzman"
    INDEX 00 03:15:00
    INDEX 01 03:17:00
  TRACK 03 AUDIO
    TITLE "Third Track"
    PERFORMER "Jazzman"
    INDEX 00 06:42:00
    INDEX 01 06:44:00

INDEX 00 is pregap

 

 

 
Follow us on
Audiophile Inventory on YouTube Audiophile Inventory on Facebook Audiophile Inventory on Twitter Audiophile Inventory on Instagram Audiophile Inventory on Pinterest Audiophile Inventory on Telegram

Copyright © Yuri Korzunov
["Audiophile Inventory" (since 2011), "AudiVentory", "Audiophile Inventory by AudiVentory.com".
Также "Audiophile Inventory by AudiVentory.com" (прежде "Audiophile Inventory") охраняемое коммерческое обозначение],
2010-2021. All Rights Reserved.
All prices at this site in the U.S. dollars without V.A.T. and other applicable taxes and fees. The prices are recommended. All information at this site is not a public offer.

Read about supported formats and third-party codecs

Site map      Terms and Conditions